Uvaa [2015] Official Trailer Ft.Jimmy Shergil,Sangram Singh|[1080P MP4][ExD$R]

Here u can watch/download upcoming movie Trailers

Uvaa [2015] Official Trailer Ft.Jimmy Shergil,Sangram Singh|[1080P MP4][ExD$R]

Postby someoneforyou86 » Thu Feb 05, 2015 5:20 pm



Uvaa [2015] Official Trailer Ft.Jimmy Shergil,Sangram Singh|[1080P MP4][ExD$R]


Poster

Image



Image

Image
Image
Image
Image
Image
Image
Image
Image


Image


General


Format : MPEG-4
Format profile : Base Media
Codec ID : isom
File size : 61.7 MiB
Duration : 2mn 37s
Overall bit rate : 3 293 Kbps
Writing application : Lavf54.18.100


Video

ID : 1
Format : AVC
Format/Info : Advanced Video Codec
Format profile : High@L4.0
Format settings, CABAC : Yes
Format settings, ReFrames : 2 frames
Codec ID : avc1
Codec ID/Info : Advanced Video Coding
Duration : 2mn 36s
Bit rate : 3 181 Kbps
Width : 1 920 pixels
Height : 1 080 pixels
Display aspect ratio : 16:9
Frame rate mode : Constant
Frame rate : 24.000 fps
Color space : YUV
Chroma subsampling : 4:2:0
Bit depth : 8 bits
Scan type : Progressive
Bits/(Pixel*Frame) : 0.064
Stream size : 59.3 MiB (96%)


Audio

ID : 2
Format : AAC
Format/Info : Advanced Audio Codec
Format profile : LC
Codec ID : 40
Duration : 2mn 37s
Bit rate mode : Constant
Bit rate : 126 Kbps
Channel(s) : 2 channels
Channel positions : Front: L R
Sampling rate : 44.1 KHz
Compression mode : Lossy
Stream size : 2.35 MiB (4%)



Image


Code:
   
https://uptobox.com/165nu40cwnnk
http://hugefiles.net/k7ulzf9xhp9b
http://clicknupload.com/yj34fgxtlqau
http://billionuploads.com/1ntb6in19832
http://www.upgrand.com/75fulpbk96z3
http://180upload.com/6khw24rrp1qs



Image





someoneforyou86
Self-Confident Adult
Self-Confident Adult
 
Posts: 222
Joined: Sat Aug 09, 2014 7:48 am
Has thanked: 0 time
Been thanked: 1 time

Return to Upcoming Movie Trailer [ Bollywood / Hollywood ]

cron
KATZ Download Cracks + Keygens Download Crack Full Download Full Downloads Downloads Crack Serial Key WarezOmen DDLSite Downloads Free Downloads WarezWorm Download DDLPal.com - Full Downloads Free Downloads
Free Full Warez Download @ dirtywarez.com BadBoyDDL.com Full RAR Downloads