Bairavaa (2016) Tamil - 700MB - 1CDRip - TCRip - x264 - AAC-MTR Exclusive

Download Tamil Movies From Here

Bairavaa (2016) Tamil - 700MB - 1CDRip - TCRip - x264 - AAC-MTR Exclusive

Postby wroser » Thu Jan 12, 2017 4:12 pm

Image



Code:
General
Format                                   : Matroska
Format version                           : Version 4 / Version 2
File size                                : 766 MiB
Duration                                 : 1 h 59 min
Overall bit rate                         : 894 kb/s
Encoded date                             : UTC 2017-01-12 04:01:08
Writing application                      : mkvmerge v7.8.0 ('River Man') 64bit built on Mar 27 2015 16:31:37
Writing library                          : libebml v1.3.1 + libmatroska v1.4.2

Video
ID                                       : 1
Format                                   : AVC
Format/Info                              : Advanced Video Codec
Format profile                           : High@L3
Format settings, CABAC                   : Yes
Format settings, ReFrames                : 4 frames
Codec ID                                 : V_MPEG4/ISO/AVC
Duration                                 : 1 h 59 min
Bit rate                                 : 731 kb/s
Width                                    : 480 pixels
Height                                   : 360 pixels
Display aspect ratio                     : 4:3
Frame rate mode                          : Constant
Frame rate                               : 30.000 FPS
Color space                              : YUV
Chroma subsampling                       : 4:2:0
Bit depth                                : 8 bits
Scan type                                : Progressive
Bits/(Pixel*Frame)                       : 0.141
Stream size                              : 627 MiB (82%)
Writing library                          : x264 core 148 r2638 7599210
Encoding settings                        : cabac=1 / ref=3 / deblock=1:0:0 / analyse=0x3:0x113 / me=hex / subme=7 / psy=1 / psy_rd=1.00:0.00 / mixed_ref=1 / me_range=16 / chroma_me=1 / trellis=1 / 8x8dct=1 / cqm=0 / deadzone=21,11 / fast_pskip=1 / chroma_qp_offset=-2 / threads=11 / lookahead_threads=1 / sliced_threads=0 / nr=0 / decimate=1 / interlaced=0 / bluray_compat=0 / constrained_intra=0 / bframes=3 / b_pyramid=2 / b_adapt=1 / b_bias=0 / direct=1 / weightb=1 / open_gop=0 / weightp=2 / keyint=300 / keyint_min=30 / scenecut=40 / intra_refresh=0 / rc_lookahead=40 / rc=2pass / mbtree=1 / bitrate=731 / ratetol=1.0 / qcomp=0.60 / qpmin=0 / qpmax=69 / qpstep=4 / cplxblur=20.0 / qblur=0.5 / ip_ratio=1.40 / aq=1:1.00
Language                                 : English
Default                                  : Yes
Forced                                   : Yes

Audio
ID                                       : 2
Format                                   : AAC
Format/Info                              : Advanced Audio Codec
Format profile                           : LC
Codec ID                                 : A_AAC
Duration                                 : 1 h 59 min
Bit rate                                 : 160 kb/s
Channel(s)                               : 1 channel
Channel positions                        : Front: C
Sampling rate                            : 44.1 kHz
Frame rate                               : 43.066 FPS (1024 spf)
Compression mode                         : Lossy
Delay relative to video                  : 529 ms
Stream size                              : 137 MiB (18%)
Language                                 : English
Default                                  : Yes
Forced                                   : Yes



Image
Image



SINGLE DIRECT FAST LINKS


Code:
http://www.heroupload.com/9bb9da42351d1 ... MB-MTR.mkv
wroser
Very Important Person
Very Important Person
 
Posts: 12458
Joined: Tue Aug 19, 2014 12:07 pm
Has thanked: 0 time
Been thanked: 7 times

Return to Tamil Movies

KATZ Download Cracks + Keygens Download Crack Full Download Full Downloads Downloads Crack Serial Key WarezOmen DDLSite Downloads Free Downloads WarezWorm Download DDLPal.com - Full Downloads Free Downloads
Free Full Warez Download @ dirtywarez.com BadBoyDDL.com Full RAR Downloads