Chennai 600028 II: Second Innings (2016) Tamil 4K Ultra-HD - AVC - DD5.1 - ESub - HT

Download Tamil Movies From Here

Chennai 600028 II: Second Innings (2016) Tamil 4K Ultra-HD - AVC - DD5.1 - ESub - HT

Postby wroser » Thu Jan 12, 2017 4:07 pm

Image



Code:
General
Format                                   : MPEG-4
Format profile                           : Base Media
Codec ID                                 : isom (isom)
File size                                : 12.9 GiB
Duration                                 : 2 h 27 min
Overall bit rate mode                    : Variable
Overall bit rate                         : 12.6 Mb/s
Encoded date                             : UTC 2017-01-11 08:15:30
Tagged date                              : UTC 2017-01-11 08:15:30

Video
ID                                       : 1
Format                                   : HEVC
Format/Info                              : High Efficiency Video Coding
Format profile                           : Main@L5@Main
Codec ID                                 : hev1
Codec ID/Info                            : High Efficiency Video Coding
Duration                                 : 2 h 27 min
Bit rate                                 : 12.0 Mb/s
Width                                    : 3 840 pixels
Height                                   : 2 160 pixels
Display aspect ratio                     : 16:9
Frame rate mode                          : Constant
Frame rate                               : 23.976 (24000/1001) FPS
Color space                              : YUV
Chroma subsampling                       : 4:2:0
Bit depth                                : 8 bits
Bits/(Pixel*Frame)                       : 0.060
Stream size                              : 12.4 GiB (96%)
Encoded date                             : UTC 2017-01-11 08:15:30
Tagged date                              : UTC 2017-01-11 08:15:30

Audio #1
ID                                       : 2
Format                                   : AAC
Format/Info                              : Advanced Audio Codec
Format profile                           : LC
Codec ID                                 : 40
Duration                                 : 2 h 27 min
Bit rate mode                            : Variable
Bit rate                                 : 96.0 kb/s
Maximum bit rate                         : 99.8 kb/s
Channel(s)                               : 2 channels
Channel positions                        : Front: L R
Sampling rate                            : 48.0 kHz
Frame rate                               : 46.875 FPS (1024 spf)
Compression mode                         : Lossy
Stream size                              : 98.5 MiB (1%)
Encoded date                             : UTC 2017-01-11 08:15:30
Tagged date                              : UTC 2017-01-11 08:15:30

Audio #2
ID                                       : 3
Format                                   : AC-3
Format/Info                              : Audio Coding 3
Mode extension                           : CM (complete main)
Format settings, Endianness              : Big
Codec ID                                 : ac-3
Duration                                 : 2 h 27 min
Bit rate mode                            : Constant
Bit rate                                 : 448 kb/s
Channel(s)                               : 6 channels
Channel positions                        : Front: L C R, Side: L R, LFE
Sampling rate                            : 48.0 kHz
Frame rate                               : 31.250 FPS (1536 spf)
Bit depth                                : 16 bits
Compression mode                         : Lossy
Stream size                              : 473 MiB (4%)
Encoded date                             : UTC 2017-01-11 08:15:30
Tagged date                              : UTC 2017-01-11 08:15:30



Image
Image
2GB LINKS

Code:


Code:
http://www.heroupload.com/d7217ff243362 ... ve.mp4.001
http://www.heroupload.com/15c6d13898962 ... ve.mp4.002
http://www.heroupload.com/13e1e4d4c3ca0 ... ve.mp4.003
http://www.heroupload.com/2278f06a98cb6 ... ve.mp4.004
http://www.heroupload.com/546d66f2cc3f3 ... ve.mp4.005
http://www.heroupload.com/d668ef137dd0f ... ve.mp4.006
http://www.heroupload.com/99a07368c08ab ... ve.mp4.007
wroser
Very Important Person
Very Important Person
 
Posts: 10694
Joined: Tue Aug 19, 2014 12:07 pm
Has thanked: 0 time
Been thanked: 7 times

Return to Tamil Movies

KATZ Download Cracks + Keygens Download Crack Full Download Full Downloads Downloads Crack Serial Key WarezOmen DDLSite Downloads Free Downloads WarezWorm Download DDLPal.com - Full Downloads Free Downloads
Free Full Warez Download @ dirtywarez.com BadBoyDDL.com Full RAR Downloads