Naam Hai Akira (2016) Tiny 720p Blu-Ray x264 AAC 5.1 ESub - DDR

Download Hindi Movies - DVDRips

Naam Hai Akira (2016) Tiny 720p Blu-Ray x264 AAC 5.1 ESub - DDR

Postby wroser » Thu Jan 12, 2017 4:00 pm

Image



Code:
Format : Matroska
File size : 1.62 GiB
Duration : 2 h 16 min
Overall bit rate : 1 696 kb/s

Video
Format : AVC
Format/Info : Advanced Video Codec
Format profile : High@L4.1
Format settings, CABAC : Yes
Format settings, ReFrames : 12 frames
Codec ID : V_MPEG4/ISO/AVC
Duration : 2 h 16 min
Bit rate : 1 500 kb/s
Width : 1 280 pixels
Height : 534 pixels
Display aspect ratio : 2.40:1
Frame rate mode : Constant
Frame rate : 24.000 FPS
Color space : YUV
Chroma subsampling : 4:2:0
Bit depth : 8 bits
Scan type : Progressive
Bits/(Pixel*Frame) : 0.091
Stream size : 1.43 GiB (88%)
Default : Yes
Forced : No
Color range : Limited
Color primaries : BT.709
Transfer characteristics : BT.709
Matrix coefficients : BT.709

Audio #1
Format : AAC
Format/Info : Advanced Audio Codec
Format profile : LC
Codec ID : A_AAC
Duration : 2 h 16 min
Bit rate : 192 kb/s
Channel(s) : 6 channels
Channel positions : Front: L C R, Side: L R, LFE
Sampling rate : 48.0 kHz
Frame rate : 46.875 FPS (1024 spf)
Compression mode : Lossy
Delay relative to video : 9 ms
Stream size : 188 MiB (11%)
Language : Hindi
Default : Yes
Forced : No


Image
Image




SINGLE DIRECT FAST LINKS


Code:
http://www.heroupload.com/f1f4c0587351f ... ub-DDR.mkv
wroser
Very Important Person
Very Important Person
 
Posts: 11187
Joined: Tue Aug 19, 2014 12:07 pm
Has thanked: 0 time
Been thanked: 7 times

Return to Hindi Movies - DVDRips

KATZ Download Cracks + Keygens Download Crack Full Download Full Downloads Downloads Crack Serial Key WarezOmen DDLSite Downloads Free Downloads WarezWorm Download DDLPal.com - Full Downloads Free Downloads
Free Full Warez Download @ dirtywarez.com BadBoyDDL.com Full RAR Downloads